请选择 进入手机版 | 继续访问电脑版

ChinaFFmpeg

 找回密码
 立即注册

QQ登录

只需一步,快速开始

查看: 772|回复: 10

ffmpeg 合并视频之后没有声音,而且不能直接使用QQ影音播放

[复制链接]
发表于 2020-8-6 15:42:36 | 显示全部楼层 |阅读模式
$str = 'ffmpeg -i 1.mp4 -i 2.mp4 -filter_complex "[1:v]scale=w=176:h=144:force_original_aspect_ratio=decrease[ckout];[0:v][ckout]overlay=x=W-w-10:y=0[out]" -map "[out]" -movflags faststart b.mp4';
回复

使用道具 举报

发表于 2020-8-6 16:16:47 | 显示全部楼层
加一个-map 0:a -map 1:a 就有声了
回复 支持 反对

使用道具 举报

 楼主| 发表于 2020-8-6 16:30:19 | 显示全部楼层
本帖最后由 zy3287 于 2020-8-6 16:33 编辑
孙悟空 发表于 2020-8-6 16:16
加一个-map 0:a -map 1:a 就有声了

ffmpeg -i 1.mp4 -i 1.mp4 -filter_complex "[1:v]scale=w=176:h=144:force_original_aspect_ratio=decrease[ckout];[0:v][ckout]overlay=x=W-w-10:y=0[out]" -map "[out]" -map 0:a -map 1:a -movflags faststart b.mp4
大师兄,为什么合并出来的视频在QQ影音软件打开提示【文件无效】,而且原来是5秒的时候,合并完只有4秒了
我是第一次使用ffmpeg,上面的命令也是看您16年的帖子看的
回复 支持 反对

使用道具 举报

发表于 2020-8-6 17:28:20 | 显示全部楼层
zy3287 发表于 2020-8-6 16:30
ffmpeg -i 1.mp4 -i 1.mp4 -filter_complex "[1:v]scale=w=176:h=144:force_original_aspect_ratio=decrea ...

可以把执行命令行开始到结束的所有内容贴上来一起看一下
回复 支持 反对

使用道具 举报

 楼主| 发表于 2020-8-7 11:30:08 | 显示全部楼层
孙悟空 发表于 2020-8-6 17:28
可以把执行命令行开始到结束的所有内容贴上来一起看一下

一共就这一句代码,我是通过php执行上面的命令来合成视频的
回复 支持 反对

使用道具 举报

发表于 2020-8-7 15:59:00 | 显示全部楼层
zy3287 发表于 2020-8-7 11:30
一共就这一句代码,我是通过php执行上面的命令来合成视频的

手动执行命令行,看一下输出内容可以么
回复 支持 反对

使用道具 举报

 楼主| 发表于 2020-8-8 09:15:34 | 显示全部楼层
本帖最后由 zy3287 于 2020-8-8 09:21 编辑
孙悟空 发表于 2020-8-7 15:59
手动执行命令行,看一下输出内容可以么
这个合并之后音频不是同步的么?我是希望音频同步,合成一问一答形势的视频。
  1. D:\works\jiujiu\chebaihui\video>ffmpeg -i 1.mp4 -i 2.mp4 -filter_complex "[1:v]scale=w=176:h=144:force_original_aspect_ratio=decrease[ckout];[0:v][ckout]overlay=x=W-w-10:y=0[out]" -map "[out]" -map 0:a -map 1:a -movflags faststart b.mp4
  2. ffmpeg version git-2020-07-29-cbb6ba2 Copyright (c) 2000-2020 the FFmpeg developers
  3.   built with gcc 10.2.1 (GCC) 20200726
  4.   configuration: --enable-gpl --enable-version3 --enable-sdl2 --enable-fontconfig --enable-gnutls --enable-iconv --enable-libass --enable-libdav1d --enable-libbluray --enable-libfreetype --enable-libmp3lame --enable-libopencore-amrnb --enable-libopencore-amrwb --enable-libopenjpeg --enable-libopus --enable-libshine --enable-libsnappy --enable-libsoxr --enable-libsrt --enable-libtheora --enable-libtwolame --enable-libvpx --enable-libwavpack --enable-libwebp --enable-libx264 --enable-libx265 --enable-libxml2 --enable-libzimg --enable-lzma --enable-zlib --enable-gmp --enable-libvidstab --enable-libvmaf --enable-libvorbis --enable-libvo-amrwbenc --enable-libmysofa --enable-libspeex --enable-libxvid --enable-libaom --enable-libgsm --disable-w32threads --enable-libmfx --enable-ffnvcodec --enable-cuda-llvm --enable-cuvid --enable-d3d11va --enable-nvenc --enable-nvdec --enable-dxva2 --enable-avisynth --enable-libopenmpt --enable-amf
  5.   libavutil      56. 57.100 / 56. 57.100
  6.   libavcodec     58. 97.102 / 58. 97.102
  7.   libavformat    58. 49.100 / 58. 49.100
  8.   libavdevice    58. 11.101 / 58. 11.101
  9.   libavfilter     7. 87.100 /  7. 87.100
  10.   libswscale      5.  8.100 /  5.  8.100
  11.   libswresample   3.  8.100 /  3.  8.100
  12.   libpostproc    55.  8.100 / 55.  8.100
  13. Input #0, mov,mp4,m4a,3gp,3g2,mj2, from '1.mp4':
  14.   Metadata:
  15.     major_brand     : mp42
  16.     minor_version   : 0
  17.     compatible_brands: isommp42
  18.     creation_time   : 2018-12-01T10:35:41.000000Z
  19.     location        : +46.5584+125.1315/
  20.     location-eng    : +46.5584+125.1315/
  21.     com.android.version: 8.1.0
  22.   Duration: 00:00:05.36, start: 0.000000, bitrate: 20357 kb/s
  23.     Stream #0:0(eng): Video: h264 (Baseline) (avc1 / 0x31637661), yuvj420p(pc, bt470bg/bt470bg/smpte170m), 1920x1080, 19562 kb/s, SAR 1:1 DAR 16:9, 29.28 fps, 120 tbr, 90k tbn, 180k tbc (default)
  24.     Metadata:
  25.       creation_time   : 2018-12-01T10:35:41.000000Z
  26.       handler_name    : VideoHandle
  27.     Stream #0:1(eng): Audio: aac (LC) (mp4a / 0x6134706D), 48000 Hz, stereo, fltp, 192 kb/s (default)
  28.     Metadata:
  29.       creation_time   : 2018-12-01T10:35:41.000000Z
  30.       handler_name    : SoundHandle
  31. Input #1, mov,mp4,m4a,3gp,3g2,mj2, from '2.mp4':
  32.   Metadata:
  33.     major_brand     : mp42
  34.     minor_version   : 0
  35.     compatible_brands: isommp42
  36.     creation_time   : 2018-12-12T11:11:39.000000Z
  37.     com.android.version: 8.1.0
  38.   Duration: 00:00:10.20, start: 0.000000, bitrate: 5894 kb/s
  39.     Stream #1:0(eng): Audio: aac (LC) (mp4a / 0x6134706D), 44100 Hz, mono, fltp, 63 kb/s (default)
  40.     Metadata:
  41.       creation_time   : 2018-12-12T11:11:39.000000Z
  42.       handler_name    : SoundHandle
  43.     Stream #1:1(eng): Video: h264 (Baseline) (avc1 / 0x31637661), yuv420p(tv, smpte170m/bt470bg/smpte170m), 720x1280, 5820 kb/s, SAR 1:1 DAR 9:16, 28.04 fps, 90k tbr, 90k tbn, 180k tbc (default)
  44.     Metadata:
  45.       creation_time   : 2018-12-12T11:11:39.000000Z
  46.       handler_name    : VideoHandle
  47. Stream mapping:
  48.   Stream #0:0 (h264) -> overlay:main (graph 0)
  49.   Stream #1:1 (h264) -> scale (graph 0)
  50.   overlay (graph 0) -> Stream #0:0 (libx264)
  51.   Stream #0:1 -> #0:1 (aac (native) -> aac (native))
  52.   Stream #1:0 -> #0:2 (aac (native) -> aac (native))
  53. Press [q] to stop, [?] for help
  54. [libx264 @ 000001847df8a940] using SAR=1/1
  55. [libx264 @ 000001847df8a940] using cpu capabilities: MMX2 SSE2Fast SSSE3 SSE4.2 AVX FMA3 BMI2 AVX2
  56. [libx264 @ 000001847df8a940] profile High, level 5.1, 4:2:0, 8-bit
  57. [libx264 @ 000001847df8a940] 264 - core 161 - H.264/MPEG-4 AVC codec - Copyleft 2003-2020 - http://www.videolan.org/x264.html - options: cabac=1 ref=3 deblock=1:0:0 analyse=0x3:0x113 me=hex subme=7 psy=1 psy_rd=1.00:0.00 mixed_ref=1 me_range=16 chroma_me=1 trellis=1 8x8dct=1 cqm=0 deadzone=21,11 fast_pskip=1 chroma_qp_offset=-2 threads=9 lookahead_threads=1 sliced_threads=0 nr=0 decimate=1 interlaced=0 bluray_compat=0 constrained_intra=0 bframes=3 b_pyramid=2 b_adapt=1 b_bias=0 direct=1 weightb=1 open_gop=0 weightp=2 keyint=250 keyint_min=25 scenecut=40 intra_refresh=0 rc_lookahead=40 rc=crf mbtree=1 crf=23.0 qcomp=0.60 qpmin=0 qpmax=69 qpstep=4 ip_ratio=1.40 aq=1:1.00
  58. Output #0, mp4, to 'b.mp4':
  59.   Metadata:
  60.     major_brand     : mp42
  61.     minor_version   : 0
  62.     compatible_brands: isommp42
  63.     com.android.version: 8.1.0
  64.     location        : +46.5584+125.1315/
  65.     location-eng    : +46.5584+125.1315/
  66.     encoder         : Lavf58.49.100
  67.     Stream #0:0: Video: h264 (libx264) (avc1 / 0x31637661), yuvj420p(pc, progressive), 1920x1080 [SAR 1:1 DAR 16:9], q=-1--1, 120 fps, 15360 tbn, 120 tbc (default)
  68.     Metadata:
  69.       encoder         : Lavc58.97.102 libx264
  70.     Side data:
  71.       cpb: bitrate max/min/avg: 0/0/0 buffer size: 0 vbv_delay: N/A
  72.     Stream #0:1(eng): Audio: aac (LC) (mp4a / 0x6134706D), 48000 Hz, stereo, fltp, 128 kb/s (default)
  73.     Metadata:
  74.       creation_time   : 2018-12-01T10:35:41.000000Z
  75.       handler_name    : SoundHandle
  76.       encoder         : Lavc58.97.102 aac
  77.     Stream #0:2(eng): Audio: aac (LC) (mp4a / 0x6134706D), 44100 Hz, mono, fltp, 69 kb/s (default)
  78.     Metadata:
  79.       creation_time   : 2018-12-12T11:11:39.000000Z
  80.       handler_name    : SoundHandle
  81.       encoder         : Lavc58.97.102 aac
  82. [mp4 @ 000001847de86980] Starting second pass: moving the moov atom to the beginning of the file speed=0.799x
  83. frame= 1224 fps= 93 q=-1.0 Lsize=    6217kB time=00:00:10.17 bitrate=5005.5kbits/s dup=927 drop=0 speed=0.773x
  84. video:6011kB audio:173kB subtitle:0kB other streams:0kB global headers:0kB muxing overhead: 0.522517%
  85. [libx264 @ 000001847df8a940] frame I:6     Avg QP:21.53  size:126921
  86. [libx264 @ 000001847df8a940] frame P:309   Avg QP:24.54  size: 16504
  87. [libx264 @ 000001847df8a940] frame B:909   Avg QP:31.12  size:   323
  88. [libx264 @ 000001847df8a940] consecutive B-frames:  1.0%  0.0%  0.0% 99.0%
  89. [libx264 @ 000001847df8a940] mb I  I16..4: 11.1% 68.4% 20.4%
  90. [libx264 @ 000001847df8a940] mb P  I16..4:  2.0%  2.7%  0.4%  P16..4: 29.1%  5.3%  2.4%  0.0%  0.0%    skip:58.1%
  91. [libx264 @ 000001847df8a940] mb B  I16..4:  0.0%  0.0%  0.0%  B16..8:  2.5%  0.0%  0.0%  direct: 0.0%  skip:97.5%  L0:48.6% L1:50.4% BI: 1.0%
  92. [libx264 @ 000001847df8a940] 8x8 transform intra:57.1% inter:68.9%
  93. [libx264 @ 000001847df8a940] coded y,uvDC,uvAC intra: 46.6% 68.6% 18.8% inter: 3.1% 5.0% 0.0%
  94. [libx264 @ 000001847df8a940] i16 v,h,dc,p: 15% 20% 18% 48%
  95. [libx264 @ 000001847df8a940] i8 v,h,dc,ddl,ddr,vr,hd,vl,hu: 16% 18% 23%  5%  8%  7%  9%  6%  7%
  96. [libx264 @ 000001847df8a940] i4 v,h,dc,ddl,ddr,vr,hd,vl,hu: 17% 23% 16%  6%  9%  7% 10%  5%  7%
  97. [libx264 @ 000001847df8a940] i8c dc,h,v,p: 58% 20% 15%  6%
  98. [libx264 @ 000001847df8a940] Weighted P-Frames: Y:1.6% UV:0.6%
  99. [libx264 @ 000001847df8a940] ref P L0: 70.8% 15.1%  8.9%  5.1%  0.1%
  100. [libx264 @ 000001847df8a940] ref B L0: 96.5%  2.7%  0.8%
  101. [libx264 @ 000001847df8a940] ref B L1: 97.1%  2.9%
  102. [libx264 @ 000001847df8a940] kb/s:4827.49
  103. [aac @ 000001847db97740] Qavg: 897.975
  104. [aac @ 000001847db96e40] Qavg: 429.988
复制代码
回复 支持 反对

使用道具 举报

发表于 2020-8-8 10:53:08 | 显示全部楼层
frame= 1224 fps= 93 q=-1.0 Lsize=    6217kB time=00:00:10.17 bitrate=5005.5kbits/s dup=927 drop=0 speed=0.773x

从输出的信息看貌似是10秒多一点的输出,而且好像dup了927帧,可能和你的两个视频帧率不同导致的
你是想输出帧率为120fps的视频?
回复 支持 反对

使用道具 举报

 楼主| 发表于 2020-8-8 17:08:40 | 显示全部楼层
我主要想合成银行面签类的视频,通过H5录制上传,然后和提问视频合并,对视频具体参数不是太了解,大师兄有什么好的方法么?
回复 支持 反对

使用道具 举报

发表于 2020-8-10 17:36:25 | 显示全部楼层
zy3287 发表于 2020-8-8 17:08
我主要想合成银行面签类的视频,通过H5录制上传,然后和提问视频合并,对视频具体参数不是太了解,大师兄有 ...

本地录制然后上传文件么?
回复 支持 反对

使用道具 举报

您需要登录后才可以回帖 登录 | 立即注册

本版积分规则

手机版|Archiver|ChinaFFmpeg

GMT+8, 2020-9-20 14:42 , Processed in 0.048104 second(s), 14 queries .

Powered by Discuz! X3.4

Copyright © 2001-2020, Tencent Cloud.

快速回复 返回顶部 返回列表